Closed For The Season (2010) DVDSCR XviD-SiC - Forum
Tuesday, 2016-12-06, 6:57 PM
Main Sign Up RSS
Welcome, Gost
[ New messages · Members · Forum rules · Search · RSS ]
Page 1 of 11
Forum » Download » Filmovi/Serije » Closed For The Season (2010) DVDSCR XviD-SiC
Closed For The Season (2010) DVDSCR XviD-SiC
IvaDatum: Tuesday, 2011-08-02, 1:02 PM | Poruka # 1
Porucnik
Group: Administratori
Poruke: 65
Nagrade: 0
Reputacija: 0
Status: Offline



Quote
General
Complete name : Closed.For.The.Season.2010.DVDSCR.XviD-SiC.avi
Format : AVI
Format/Info : Audio Video Interleave
File size : 1.44 GiB
Duration : 1h 53mn
Overall bit rate : 1 814 Kbps
Writing application : VirtualDubMod 1.5.4.1 (build 2178/release)
Writing library : VirtualDub build 32842/release

Video
ID : 0
Format : MPEG-4 Visual
Format profile : Advanced Simple@L5
Format settings, BVOP : 1
Format settings, QPel : No
Format settings, GMC : No warppoints
Format settings, Matrix : Custom
Codec ID : XVID
Codec ID/Hint : XviD
Duration : 1h 53mn
Bit rate : 1 613 Kbps
Width : 720 pixels
Height : 320 pixels
Display aspect ratio : 2.25:1
Frame rate : 23.976 fps
Color space : YUV
Chroma subsampling : 4:2:0
Bit depth : 8 bits
Scan type : Progressive
Compression mode : Lossy
Bits/(Pixel*Frame) : 0.292
Stream size : 1.28 GiB (89%)
Writing library : XviD 64

Audio
ID : 1
Format : AC-3
Format/Info : Audio Coding 3
Mode extension : CM (complete main)
Codec ID : 2000
Duration : 1h 53mn
Bit rate mode : Constant
Bit rate : 192 Kbps
Channel(s) : 2 channels
Channel positions : Front: L R
Sampling rate : 48.0 KHz
Bit depth : 16 bits
Compression mode : Lossy
Delay relative to video : 17ms
Stream size : 156 MiB (11%)
Alignment : Split accross interleaves
Interleave, duration : 42 ms (1.00 video frame)
Interleave, preload duration : 500 ms






Code
http://www.fileserve.com/file/6fRz4Bx/Closed.For.The.Season.cW.part1.rar
http://www.fileserve.com/file/6RjXQVw/Closed.For.The.Season.cW.part2.rar

http://www.filesonic.com/file/1562061334/Closed.For.The.Season.cW.part1.rar
http://www.filesonic.com/file/1562053604/Closed.For.The.Season.cW.part2.rar

http://www.wupload.com/file/72083459/Closed.For.The.Season.cW.part1.rar
http://www.wupload.com/file/72083066/Closed.For.The.Season.cW.part2.rar
 
Forum » Download » Filmovi/Serije » Closed For The Season (2010) DVDSCR XviD-SiC
Page 1 of 11
Search: